[ login ] [ registrati! ]   


- La.Révolution.S01E01-08.NF.WEBRip.ITA.FRA.DDP5.1.x264-BlackBit -


Download via torrent:
Categoria bittorrent SerieTv
Descrizione




[size=36pt]La Révolution - Stagione 1[/size]


Titolo originale La Révolution
Paese Francia
Anno 2020
Formato serie TV
Genere action, adventure, drama
Stagioni 1
Episodi 8
Lingua originale francese



La Révolution, serie TV di genere ucronico (capace, cioè, di raccontare una versione diversa di un fatto storico), ci porta dritti dritti in una dimensione alternativa della Rivoluzione Francese. Ci troviamo in Francia nel 1787 dove, indagando su una serie di misteriosi omicidi, Joseph Guillotin - futuro inventore della ghigliottina - scopre l'esistenza di un nuovo virus capace di far diventare il sangue (davvero) blu. La malattia si diffonde all'interno dell'aristocrazia transalpina e spinge la nobiltà ad attaccare il popolo. È l'inizio di una rivolta che potrebbe svelare la vera storia della Rivoluzione Francese...



[spoiler][/spoiler]


[spoiler]
General
Unique ID : 165983404550396112547121754454259595262 (0x7CDF3DAC3EA1A8523DA5084A80A2F7FE)
Complete name : C:UsersAdministratorVideosLa Revolution S01La.Révolution.S01E01.Chapter.One.The.Beginning.NF.WEBRip.ITA.FRA.DDP5.1.x264-BlackBit.mkv
Format : Matroska
Format version : Version 4
File size : 857 MiB
Duration : 51 min 22 s
Overall bit rate : 2 332 kb/s
Encoded date : UTC 2020-10-16 10:16:18
Writing application : mkvmerge v50.0.0 ('Awakenings&#39 64-bit
Writing library : libebml v1.4.0 + libmatroska v1.6.2

Video
ID : 1
Format : AVC
Format/Info : Advanced Video Codec
Format profile : [email protected]
Format settings : CABAC / 5 Ref Frames
Format settings, CABAC : Yes
Format settings, Reference : 5 frames
Codec ID : V_MPEG4/ISO/AVC
Duration : 51 min 20 s
Bit rate : 1 100 kb/s
Width : 720 pixels
Height : 360 pixels
Display aspect ratio : 2.000
Frame rate mode : Constant
Frame rate : 24.000 FPS
Color space : YUV
Chroma subsampling : 4:2:0
Bit depth : 8 bits
Scan type : Progressive
Bits/(Pixel*Frame) : 0.177
Stream size : 386 MiB (45%)
Writing library : x264 core 148 r2795M aaa9aa8
Encoding settings : cabac=1 / ref=5 / deblock=1:-1:-1 / analyse=0x3:0x113 / me=umh / subme=9 / psy=1 / psy_rd=1.00:0.15 / mixed_ref=1 / me_range=16 / chroma_me=1 / trellis=2 / 8x8dct=1 / cqm=0 / deadzone=21,11 / fast_pskip=1 / chroma_qp_offset=-3 / threads=24 / lookahead_threads=2 / sliced_threads=0 / nr=0 / decimate=1 / interlaced=0 / bluray_compat=0 / constrained_intra=0 / bframes=3 / b_pyramid=2 / b_adapt=2 / b_bias=0 / direct=3 / weightb=1 / open_gop=0 / weightp=2 / keyint=250 / keyint_min=24 / scenecut=40 / intra_refresh=0 / rc_lookahead=50 / rc=abr / mbtree=1 / bitrate=1100 / ratetol=1.0 / qcomp=0.60 / qpmin=0 / qpmax=69 / qpstep=4 / ip_ratio=1.40 / aq=1:1.00
Default : Yes
Forced : Yes

Audio #1
ID : 2
Format : E-AC-3
Format/Info : Enhanced AC-3
Commercial name : Dolby Digital Plus
Codec ID : A_EAC3
Duration : 51 min 22 s
Bit rate mode : Constant
Bit rate : 640 kb/s
Channel(s) : 6 channels
Channel layout : L R C LFE Ls Rs
Sampling rate : 48.0 kHz
Frame rate : 31.250 FPS (1536 SPF)
Compression mode : Lossy
Stream size : 235 MiB (27%)
Language : Italian
Service kind : Complete Main
Default : Yes
Forced : Yes

Audio #2
ID : 3
Format : E-AC-3
Format/Info : Enhanced AC-3
Commercial name : Dolby Digital Plus
Codec ID : A_EAC3
Duration : 51 min 22 s
Bit rate mode : Constant
Bit rate : 640 kb/s
Channel(s) : 6 channels
Channel layout : L R C LFE Ls Rs
Sampling rate : 48.0 kHz
Frame rate : 31.250 FPS (1536 SPF)
Compression mode : Lossy
Stream size : 235 MiB (27%)
Title : French
Language : French
Service kind : Complete Main
Default : No
Forced : No

Text #1
ID : 4
Format : UTF-8
Codec ID : S_TEXT/UTF8
Codec ID/Info : UTF-8 Plain Text
Duration : 50 min 16 s
Bit rate : 0 b/s
Count of elements : 13
Stream size : 312 Bytes (0%)
Language : Italian
Default : Yes
Forced : Yes

Text #2
ID : 5
Format : UTF-8
Codec ID : S_TEXT/UTF8
Codec ID/Info : UTF-8 Plain Text
Duration : 50 min 17 s
Bit rate : 34 b/s
Count of elements : 448
Stream size : 12.9 KiB (0%)
Title : Italian
Language : Italian
Default : No
Forced : No[/spoiler]
Info: Per scaricare devi usare un client come uTorrent o Transmission
AnnounceURL
udp://tracker.coppersurfer.tk:6969/announce
Hash bbf457b27bf1c99f464c359fd862cceb59d362d5
Peers seeds: 60 , leech: 63
Size 6.07 GB
Completato 152x
Aggiunto 16.10.20 - 18:10:31
Uploader Anonymous
Votazione (Voti: 0)


Condividi questo bittorrent:


html/blog:


bbcode/forum: