[ login ] [ registrati! ]   


- We.Are.Who.We.Are.S01E03-04.WEBMux.ITA.ENG.DD5.1.x264-BlackBit -


Download via torrent:
Categoria bittorrent SerieTv
Descrizione




[size=36pt]We Are Who We Are - Stagione 1[/size]


Paese Italia, Stati Uniti d'America
Anno 2020
Formato miniserie TV
Genere dramma adolescenziale
Puntate 8
Durata 49-75 min (puntata)
Lingua originale inglese, italiano
Rapporto 2,00:1



La miniserie si concentra sulle vite di due adolescenti americani che vivono in una base militare statunitense a Chioggia, nel 2016.


[spoiler][/spoiler]


[spoiler]General
Unique ID : 322224576433590762873173357708038301256 (0xF26A3230CC397E2D8BB06A26B0F6E64
Complete name : C:UsersAdministratorVideosWe Are Who We Are S01Ep 01We.Are.Who.We.Are.S01E01.Right.Here.Right.Now.1.WEBMux.ITA.ENG.DD5.1.x264-BlackBit.mkv
Format : Matroska
Format version : Version 4
File size : 928 MiB
Duration : 1 h 0 min
Overall bit rate : 2 162 kb/s
Encoded date : UTC 2020-10-06 13:00:47
Writing application : mkvmerge v50.0.0 ('Awakenings&#39 64-bit
Writing library : libebml v1.4.0 + libmatroska v1.6.2

Video
ID : 1
Format : AVC
Format/Info : Advanced Video Codec
Format profile : [email protected]
Format settings : CABAC / 15 Ref Frames
Format settings, CABAC : Yes
Format settings, Reference : 15 frames
Codec ID : V_MPEG4/ISO/AVC
Duration : 59 min 59 s
Bit rate : 1 311 kb/s
Width : 720 pixels
Height : 404 pixels
Display aspect ratio : 16:9
Frame rate mode : Constant
Frame rate : 23.976 (24000/1001) FPS
Color space : YUV
Chroma subsampling : 4:2:0
Bit depth : 8 bits
Scan type : Progressive
Bits/(Pixel*Frame) : 0.188
Stream size : 563 MiB (61%)
Writing library : x264 core 157 r2969 d4099dd
Encoding settings : cabac=1 / ref=15 / deblock=1:0:0 / analyse=0x3:0x133 / me=umh / subme=9 / psy=1 / psy_rd=1.00:0.00 / mixed_ref=1 / me_range=24 / chroma_me=1 / trellis=2 / 8x8dct=1 / cqm=0 / deadzone=21,11 / fast_pskip=0 / chroma_qp_offset=-2 / threads=12 / lookahead_threads=2 / sliced_threads=0 / nr=0 / decimate=1 / interlaced=0 / bluray_compat=0 / constrained_intra=0 / bframes=8 / b_pyramid=2 / b_adapt=2 / b_bias=0 / direct=3 / weightb=1 / open_gop=0 / weightp=2 / keyint=240 / keyint_min=23 / scenecut=40 / intra_refresh=0 / rc_lookahead=60 / rc=crf / mbtree=0 / crf=17.0 / qcomp=0.60 / qpmin=0 / qpmax=69 / qpstep=4 / vbv_maxrate=17500 / vbv_bufsize=17500 / crf_max=0.0 / nal_hrd=none / filler=0 / ip_ratio=1.40 / pb_ratio=1.30 / aq=1:1.00
Default : Yes
Forced : Yes

Audio #1
ID : 2
Format : AC-3
Format/Info : Audio Coding 3
Commercial name : Dolby Digital
Codec ID : A_AC3
Duration : 59 min 59 s
Bit rate mode : Constant
Bit rate : 640 kb/s
Channel(s) : 6 channels
Channel layout : L R C LFE Ls Rs
Sampling rate : 48.0 kHz
Frame rate : 31.250 FPS (1536 SPF)
Compression mode : Lossy
Stream size : 275 MiB (30%)
Language : Italian
Service kind : Complete Main
Default : Yes
Forced : Yes

Audio #2
ID : 3
Format : AAC LC
Format/Info : Advanced Audio Codec Low Complexity
Codec ID : A_AAC-2
Duration : 59 min 59 s
Bit rate : 209 kb/s
Channel(s) : 2 channels
Channel layout : L R
Sampling rate : 48.0 kHz
Frame rate : 46.875 FPS (1024 SPF)
Compression mode : Lossy
Delay relative to video : 9 ms
Stream size : 89.8 MiB (10%)
Language : English
Default : No
Forced : No

Text #1
ID : 4
Format : UTF-8
Codec ID : S_TEXT/UTF8
Codec ID/Info : UTF-8 Plain Text
Duration : 47 min 54 s
Bit rate : 0 b/s
Count of elements : 6
Stream size : 139 Bytes (0%)
Language : Italian
Default : Yes
Forced : Yes

Text #2
ID : 5
Format : UTF-8
Codec ID : S_TEXT/UTF8
Codec ID/Info : UTF-8 Plain Text
Duration : 56 min 20 s
Bit rate : 46 b/s
Count of elements : 646
Stream size : 19.1 KiB (0%)
Language : Italian
Default : No
Forced : No

Text #3
ID : 6
Format : UTF-8
Codec ID : S_TEXT/UTF8
Codec ID/Info : UTF-8 Plain Text
Duration : 59 min 47 s
Bit rate : 67 b/s
Count of elements : 930
Stream size : 29.8 KiB (0%)
Title : SDH
Language : English
Default : No
Forced : No[/spoiler]
Info: Per scaricare devi usare un client come uTorrent o Transmission
AnnounceURL
udp://tracker.coppersurfer.tk:6969/announce
Hash a7842d913f3fdca24bda1a8eef70818f817bb242
Peers seeds: 0 , leech: 0
Size 1.66 GB
Completato 0x
Aggiunto 17.10.20 - 19:10:56
Uploader Anonymous
Votazione (Voti: 0)


Condividi questo bittorrent:


html/blog:


bbcode/forum: